РАЗРАБОТКА САЙТА
» » » Yoga for Beginners with Kino MacGregor Ashtanga Yoga
Информация к новости
  • Просмотров: 0
  • Автор: mitsumi
  • Дата: 2 июня 2020
2 июня 2020

Yoga for Beginners with Kino MacGregor Ashtanga Yoga

Категория: warez / e-book

Yoga for Beginners with Kino MacGregor  Ashtanga Yoga


Yoga for Beginners with Kino MacGregor: Ashtanga Yoga
DVDRip | English | AVI | 720 x 400 | XviD ~1828 kbps | 25 fps
AC-3 | 192 Kbps | 48.0 KHz | 2 channels | 02:20:56 | 2.19 GB
Genre: eLearning Video / Yoga, Pilates

Kino MacGregor introduces you to the practice of Ashtanga Yoga taught to her by Sri K. Pattabhi Jois and R. Sharath Jois in Mysore, India. As a professional yoga teacher, the most frequent request Kino receives from her students is for a beginner's programme. These progressive segments will help you build a strong foundation of yoga as you learn the postures at the perfect pace.

Includes:

05 Practice 3 (24 mins).avi (386.6 MB)
04 Practice 2 (23 mins).avi (363.2 MB)
03 Practice 1 (20 mins).avi (327.9 MB)
06 Core Workout (24 mins).avi (321.3 MB)
07 Meditation & Relaxation (10 mins).avi (226.5 MB)
08 Interview.avi (216.1 MB)
09 Inspirational.avi (211.1 MB)
02 Tutorial.avi (169.2 MB)
01 Introduction.avi (27.5 MB)

General
Complete name : 05 Practice 3 (24 mins).avi
Format : AVI
Format/Info : Audio Video Interleave
File size : 387 MiB
Duration : 24 min 16 s
Overall bit rate : 2 227 kb/s

Video
ID : 0
Format : MPEG-4 Visual
Format profile : Advanced [email protected]
Format settings : BVOP1 / Custom Matrix
Format settings, BVOP : 1
Format settings, QPel : No
Format settings, GMC : No warppoints
Format settings, Matrix : Custom
Codec ID : XVID
Codec ID/Hint : XviD
Duration : 24 min 16 s
Bit rate : 1 828 kb/s
Width : 720 pixels
Height : 400 pixels
Display aspect ratio : 16:9
Frame rate : 25.000 FPS
Color space : YUV
Chroma subsampling : 4:2:0
Bit depth : 8 bits
Scan type : Progressive
Compression mode : Lossy
Bits/(Pixel*Frame) : 0.254
Stream size : 317 MiB (82%)
Writing library : XviD 65

Audio #1
ID : 1
Format : AC-3
Format/Info : Audio Coding 3
Codec ID : 2000
Duration : 24 min 16 s
Bit rate mode : Constant
Bit rate : 192 kb/s
Channel(s) : 2 channels
Channel positions : Front: L R
Sampling rate : 48.0 kHz
Frame rate : 31.250 FPS (1536 SPF)
Bit depth : 16 bits
Compression mode : Lossy
Delay relative to video : 16 ms
Stream size : 33.3 MiB (9%)
Alignment : Split accross interleaves
Interleave, duration : 40 ms (1.00 video frame)
Interleave, preload duration : 500 ms
Service kind : Complete Main

Audio #2
ID : 2
Format : AC-3
Format/Info : Audio Coding 3
Codec ID : 2000
Duration : 24 min 16 s
Bit rate mode : Constant
Bit rate : 192 kb/s
Channel(s) : 2 channels
Channel positions : Front: L R
Sampling rate : 48.0 kHz
Frame rate : 31.250 FPS (1536 SPF)
Bit depth : 16 bits
Compression mode : Lossy
Delay relative to video : 16 ms
Stream size : 33.3 MiB (9%)
Alignment : Split accross interleaves
Interleave, duration : 40 ms (1.00 video frame)
Interleave, preload duration : 500 ms
Service kind : Complete Main

Screenshots








Buy Premium Account From My Download Links And Get Resumable Support & SUPER Fastest speed

rapidgator_net:
https://rapidgator.net/file/25834542daf18da8edbd44e1fc50a56f/ou0ea.Yoga.for.Beginners.with.Kino.MacGregor.Ashtanga.Yoga.part1.rar.html
https://rapidgator.net/file/7b6dec1373f669d48dd3a21a069789dd/ou0ea.Yoga.for.Beginners.with.Kino.MacGregor.Ashtanga.Yoga.part2.rar.html
https://rapidgator.net/file/42223521d17cefe82e537122dfe2b35d/ou0ea.Yoga.for.Beginners.with.Kino.MacGregor.Ashtanga.Yoga.part3.rar.html
https://rapidgator.net/file/fcb1cbdf102c3315d30e198b710c82de/ou0ea.Yoga.for.Beginners.with.Kino.MacGregor.Ashtanga.Yoga.part4.rar.html
https://rapidgator.net/file/0103b2e85f5b28be42f3c7e12caaf8b4/ou0ea.Yoga.for.Beginners.with.Kino.MacGregor.Ashtanga.Yoga.part5.rar.html

nitroflare_com:
https://nitroflare.com/view/3C3A6C140487264/ou0ea.Yoga.for.Beginners.with.Kino.MacGregor.Ashtanga.Yoga.part1.rar
https://nitroflare.com/view/67D2F610AECA140/ou0ea.Yoga.for.Beginners.with.Kino.MacGregor.Ashtanga.Yoga.part2.rar
https://nitroflare.com/view/6510CC5318F76C2/ou0ea.Yoga.for.Beginners.with.Kino.MacGregor.Ashtanga.Yoga.part3.rar
https://nitroflare.com/view/0EB87ECE1825DC3/ou0ea.Yoga.for.Beginners.with.Kino.MacGregor.Ashtanga.Yoga.part4.rar
https://nitroflare.com/view/61B07921F01A097/ou0ea.Yoga.for.Beginners.with.Kino.MacGregor.Ashtanga.Yoga.part5.rar

uploadgig_com:
http://uploadgig.com/file/download/6b06227e8e617C5c/ou0ea.Yoga.for.Beginners.with.Kino.MacGregor.Ashtanga.Yoga.part1.rar
http://uploadgig.com/file/download/b80501d7a5E5D731/ou0ea.Yoga.for.Beginners.with.Kino.MacGregor.Ashtanga.Yoga.part2.rar
http://uploadgig.com/file/download/86F5e3b400A12119/ou0ea.Yoga.for.Beginners.with.Kino.MacGregor.Ashtanga.Yoga.part3.rar
http://uploadgig.com/file/download/5238f7e71c03650A/ou0ea.Yoga.for.Beginners.with.Kino.MacGregor.Ashtanga.Yoga.part4.rar
http://uploadgig.com/file/download/ea01180cAD11338e/ou0ea.Yoga.for.Beginners.with.Kino.MacGregor.Ashtanga.Yoga.part5.rar


Links are Interchangeable - No Password - Single Extraction
Уважаемый посетитель, Вы зашли на сайт как незарегистрированный пользователь.
Мы рекомендуем Вам зарегистрироваться либо войти на сайт под своим именем.


Новости видео

Опасные гастроли (1969) DVDRip

1910 год. Одесса. Некий француз, виконт де Кордель, с дозволения губернатора и «отцов» города организует театр-кабаре. В нем выступают эстрадные артисты: куплетист Бенгальский, очаровательная ...

Визит в Лувр. Визит в Версаль. Визит в Париж / Louvre la visite. Versailles la visite. Paris la visite (1998-2002) DVDRip

Вам предстоит пережить запоминающиеся моменты в своей жизни и посетить страну с именем – Франция. И начнется знакомство с этой удивительной страной с ее столицы – Парижа и самым посещаемым музеем в ...

От прокрастинации к мотивации (2020)

Прокрастинация - в психологии склонность к постоянному откладыванию даже важных и срочных дел, приводящая к жизненным проблемам и болезненным психологическим эффектам.

Новости музыки

Nothing But... Soulful House Vibes, Vol. 10 (2020)

Исполнитель:VA Название: Nothing But... Soulful House Vibes, Vol. 10 (2020) Лейбл:Nothing But... Каталог: NBSHV 10 Жанр: Deep House, House Год выпуска: 2020 Количество треков: 25 Время звучания: ...

17 Progressive Tracks Of Summer (2020)

Исполнитель:VA Название: 17 Progressive Tracks Of Summer (2020) Жанр: Electronic, House, Progressive House Год выпуска: 2020 Количество треков: 17 Время звучания: 129:46 Формат: MP3 Качество: 320kbps ...

Dance Summer 2020 (2020)

Исполнитель: VA Название: Dance Summer 2020 (2020) Жанр: House, Electronic, Dance Год выпуска: 2020 Количество треков: 80 Время звучания: 04:09:08 Качество: MP3 | 320 kbps Размер: 600 MB

Новости печатных изданий

Шарапов Кирилл - Проект «Изоляция»: Возвращение (Аудиокнига)

Прошло одиннадцать лет с момента гибели Мечислава Молотова. Ковчег живет, им правят другие люди, марионетки в руках «серого кардинала». Они заботятся только о собственной выгоде и власти, продвигая ...

Шарапов Кирилл - Проект «Изоляция» (Аудиокнига)

В результате катаклизма в ядре планеты, Земля перестает существовать, превратившись в кусок космического шлака. «Ковчег» – бывшая военная база, на которой укрылись последние земляне, и куда ...

Лучшие новогодние салаты, которые полюбят все

Салат – обязательная часть праздничного застолья: сытный или легкий, овощной или мясной, он может стать просто закуской или сыграть более серьезную роль. В этой книге вы найдете почти 30 рецептов ...
^