РАЗРАБОТКА САЙТА
Информация к новости
  • Просмотров: 0
  • Автор: Magik
  • Дата: 19 мая 2022
  • 0
19 мая 2022

John P - Tronic Podcast 512 (2022-05-19)

Категория: warez / Музыка

John P - Tronic Podcast 512 (2022-05-19)

Исполнитель:VA
Название: John P - Tronic Podcast 512 (2022-05-19)
Жанр: House, Tech House, Deep House, Electronic, Progressive, Dance
Год выпуска: 2022
Количество треков: 1
Время звучания: 01:06:46
Формат: mp3, mixed
Качество: 320kbps | 44.1 kHz | Stereo
Размер: 154 MB

Метки к статье: House Tech House Deep House Electronic Progressive Dance

Информация к новости
  • Просмотров: 0
  • Автор: AD-TEAM
  • Дата: 19 мая 2022
  • 0
19 мая 2022

CrossStitcher - April 2018

Категория: warez / e-book

CrossStitcher - April 2018

CrossStitcher - April 2018
English | 92 pages | True PDF | 127.4 MB

Метки к статье: CrossStitcher April 2018

Информация к новости
  • Просмотров: 0
  • Автор: Magik
  • Дата: 19 мая 2022
  • 0
19 мая 2022

Another Ambition - Into The Deep 375 (2022-05-19)

Категория: warez / Музыка

Another Ambition - Into The Deep 375 (2022-05-19)

Исполнитель:Another Ambition
Название: Another Ambition - Into The Deep 375 (2022-05-19)
Жанр: House, Tech House, Deep House, Electronic, Progressive, Dance
Год выпуска: 2022
Количество треков: 1
Время звучания: 01:00:44
Формат: mp3, mixed
Качество: 320kbps | 44.1 kHz | Stereo
Размер: 141 MB

Метки к статье: House Tech House Deep House Electronic Progressive Dance

Информация к новости
  • Просмотров: 0
  • Автор: AD-TEAM
  • Дата: 19 мая 2022
  • 0
19 мая 2022

Anoda+ India - January/July 2022

Категория: warez / e-book

Anoda+ India - January/July 2022

Anoda+ India - January/July 2022
English | 74 Pages | PDF | 16 MB

Метки к статье: Anoda India January July 2022

Информация к новости
  • Просмотров: 0
  • Автор: Magik
  • Дата: 19 мая 2022
  • 0
19 мая 2022

Airomen - Airomen Mix Show 200 (2022-05-19)

Категория: warez / Музыка

Airomen - Airomen Mix Show 200 (2022-05-19)

Исполнитель:Airomen
Название: Airomen - Airomen Mix Show 200 (2022-05-19)
Жанр: House
Год выпуска: 2022
Количество треков: 1
Время звучания: 59:59
Формат: mp3, mixed
Качество: 192kbps | 44.1 kHz | Stereo
Размер: 139 MB

Метки к статье: House

Информация к новости
  • Просмотров: 0
  • Автор: AD-TEAM
  • Дата: 19 мая 2022
  • 0
19 мая 2022

Fast Company (1979)

Категория: warez / e-book

[center]Fast Company (1979)

Fast Company (1979)
BDRip | MKV | 1920x1080 | H264 @ 13597 kbps | AC-3 @ 640 kbps | 21 min 57 s | 2.18 GiB
Genre: Drama
An early departure from director David Cronenberg's canon of visceral horror, 1979's Fast Company profiles one of his personal passions, racecars, in a gritty melodrama that also features exciting racetrack footage. Veteran toughguy William Smith is top-billed as a champion drag racer who clashes with the unscrupulous oil-company executive (John Saxon) who sponsors his team.

Files eb54383da5b04b1fa188dd4ccc6c63a6.mkv (2.2 GB)

Mediainfo General
Unique ID : 211095570785619625153008142949441657098 (0x9ECF8730EDEFDAE29F9CBB3BEB48D90A)
Complete name : ./eb54383da5b04b1fa188dd4ccc6c63a6.mkv
Format : Matroska
Format version : Version 2
File size : 2.18 GiB
Duration : 21 min 57 s
Overall bit rate : 14.2 Mb/s
Encoded date : UTC 2012-11-21 11:39:36
Writing application : mkvmerge v5.8.0 ('No Sleep / Pillow') built on Sep 2 2012 15:37:04
Writing library : libebml v1.2.3 + libmatroska v1.3.0

Video
ID : 1
Format : AVC
Format/Info : Advanced Video Codec
Format profile : [email protected]
Format settings : CABAC / 4 Ref Frames
Format settings, CABAC : Yes
Format settings, RefFrames : 4 frames
Muxing mode : Header stripping
Codec ID : V_MPEG4/ISO/AVC
Duration : 21 min 57 s
Bit rate : 13.6 Mb/s
Width : 1 920 pixels
Height : 1 080 pixels
Display aspect ratio : 16:9
Frame rate mode : Constant
Frame rate : 23.976 (24000/1001) FPS
Color space : YUV
Chroma subsampling : 4:2:0
Bit depth : 8 bits
Scan type : Progressive
Bits/(Pixel*Frame) : 0.273
Stream size : 2.04 GiB (94%)
Writing library : x264 core 129 r2230 1cffe9f
Encoding settings : cabac=1 / ref=4 / deblock=1:0:0 / analyse=0x3:0x133 / me=umh / subme=8 / psy=1 / psy_rd=1.00:0.00 / mixed_ref=1 / me_range=16 / chroma_me=1 / trellis=1 / 8x8dct=1 / cqm=0 / deadzone=21,11 / fast_pskip=0 / chroma_qp_offset=-2 / threads=18 / lookahead_threads=3 / sliced_threads=0 / nr=0 / decimate=1 / interlaced=0 / bluray_compat=0 / constrained_intra=0 / bframes=3 / b_pyramid=2 / b_adapt=1 / b_bias=0 / direct=1 / weightb=1 / open_gop=0 / weightp=2 / keyint=250 / keyint_min=23 / scenecut=40 / intra_refresh=0 / rc_lookahead=40 / rc=2pass / mbtree=1 / bitrate=13597 / ratetol=1.0 / qcomp=0.60 / qpmin=0 / qpmax=69 / qpstep=4 / cplxblur=20.0 / qblur=0.5 / ip_ratio=1.40 / aq=1:1.00
Language : English
Default : Yes
Forced : No

Audio
ID : 2
Format : AC-3
Format/Info : Audio Coding 3
Format settings, Endianness : Big
Muxing mode : Header stripping
Codec ID : A_AC3
Duration : 21 min 57 s
Bit rate mode : Constant
Bit rate : 640 kb/s
Channel(s) : 6 channels
Channel positions : Front: L C R, Side: L R, LFE
Sampling rate : 48.0 kHz
Frame rate : 31.250 FPS (1536 SPF)
Bit depth : 16 bits
Compression mode : Lossy
Stream size : 101 MiB (4%)
Service kind : Complete Main
Default : Yes
Forced : No



Метки к статье: Fast Company 1979

Информация к новости
  • Просмотров: 0
  • Автор: AD-TEAM
  • Дата: 19 мая 2022
  • 0
19 мая 2022

American Whiskey Magazine – March 2022

Категория: warez / e-book

American Whiskey Magazine – March 2022

American Whiskey Magazine – March 2022
English | 102 pages | True PDF | 62.0 MB

Метки к статье: American Whiskey Magazine March 2022

Информация к новости
  • Просмотров: 0
  • Автор: LeeAndro
  • Дата: 19 мая 2022
  • 0
19 мая 2022

Principle 6.16 macOS

Категория: warez / SOFT

Principle 6.16 macOS
Language: Multilingual | File size: 8 MB

Principle makes it easy to create animated and interactive user-interface designs.

Информация к новости
  • Просмотров: 0
  • Автор: AD-TEAM
  • Дата: 19 мая 2022
  • 0
19 мая 2022

New Business UK – 25 February 2022

Категория: warez / e-book

New Business UK – 25 February 2022

New Business UK – 25 February 2022
English | 70 pages | PDF | 52.7 MB

Метки к статье: New Business UK February 2022

Информация к новости
  • Просмотров: 0
  • Автор: Magik
  • Дата: 19 мая 2022
  • 0
19 мая 2022

Andrew Rayel - Find Your Harmony 307 (2022-05-17)

Категория: warez / Музыка

Andrew Rayel - Find Your Harmony 307 (2022-05-17)

Исполнитель:Andrew Rayel
Название: Andrew Rayel - Find Your Harmony 307 (2022-05-17)
Жанр: Trance, Progressive, Uplifting Trance
Год выпуска: 2022
Количество треков: 1
Время звучания: 01:59:46
Формат: mp3, mixed
Качество: 320kbps
Размер: 274 MB

Метки к статье: Trance Progressive Uplifting Trance Andrew Rayel Find Your Harmony Radioshow



Архив новостей

Август 2022 (4455)
Июль 2022 (11648)
Июнь 2022 (11832)
Май 2022 (16710)
Апрель 2022 (13993)
Март 2022 (7477)

Новости видео

Новости музыки

Новости печатных изданий

^