РАЗРАБОТКА САЙТА
Информация к новости
  • Просмотров: 0
  • Автор: AD-TEAM
  • Дата: Сегодня, 20:26
  • 0
Сегодня, 20:26

HomeStyle - April 2018

Категория: warez / e-book

HomeStyle - April 2018

HomeStyle - April 2018
English | 116 pages | True PDF | 49 MB

Метки к статье: HomeStyle April 2018

Информация к новости
  • Просмотров: 0
  • Автор: AD-TEAM
  • Дата: Сегодня, 20:03
  • 0
Сегодня, 20:03

Brides UK - November/December 2018

Категория: warez / e-book

Brides UK - November/December 2018

Brides UK - November/December 2018
English | 272 pages | True PDF | 46.3 MB

Метки к статье: Brides UK November December 2018

Информация к новости
  • Просмотров: 0
  • Автор: AD-TEAM
  • Дата: Сегодня, 04:54
  • 0
Сегодня, 04:54

Delicious UK – July 2018

Категория: warez / e-book

Delicious UK – July 2018

Delicious UK – July 2018
English | 132 pages | True PDF | 39.8 MB

Метки к статье: Delicious UK July 2018

Информация к новости
  • Просмотров: 0
  • Автор: AD-TEAM
  • Дата: Сегодня, 04:41
  • 0
Сегодня, 04:41

Hi-Fi Choice – July 2018

Категория: warez / e-book

Hi-Fi Choice – July 2018

Hi-Fi Choice – July 2018
English | 132 pages | True PDF | 20.2 MB

Метки к статье: Hi Fi Choice July 2018

Информация к новости
  • Просмотров: 0
  • Автор: AD-TEAM
  • Дата: Вчера, 01:45
  • 0
Вчера, 01:45

The Rake (2018)

Категория: warez / e-book

[center]The Rake (2018)

The Rake (2018)
BDRip | MKV | 1920x1080 | English | H264 @ 5760 kbps | AC-3 @ 448 kbps | 1 h 18 min | 3.41 GiB
Subtitles: English
Genre: Drama, Horror, Thriller
Ben and Ashley come together 20 years after the murder of their parents to determine the cause of their parents' death. Ashley is troubled by the idea that the thing that took her parents' lives may not be finished with her family.

Files 3f55e072d2cf470ab630b2a5453bbea1.mkv (3.4 GB)

Mediainfo General
Unique ID : 178104278337787812681535090727975327914 (0x85FDA2E3BB8642B3A83AF9F9E31718AA)
Complete name : ./3f55e072d2cf470ab630b2a5453bbea1.mkv
Format : Matroska
Format version : Version 4 / Version 2
File size : 3.41 GiB
Duration : 1 h 18 min
Overall bit rate : 6 190 kb/s
Movie name : The.Rake.2018.1080p.BluRay.x264-nikt0
Encoded date : UTC 2020-03-09 23:59:48 / UTC 2020-03-08T07:15:15Z
Writing application : mkvmerge v38.0.0 ('The Silent Type') 64-bit
Writing library : libebml v1.3.9 + libmatroska v1.5.2 / Lavf57.7.2

Video
ID : 1
Format : AVC
Format/Info : Advanced Video Codec
Format profile : [email protected]
Format settings : CABAC / 4 Ref Frames
Format settings, CABAC : Yes
Format settings, RefFrames : 4 frames
Codec ID : V_MPEG4/ISO/AVC
Duration : 1 h 18 min
Bit rate : 5 760 kb/s
Width : 1 920 pixels
Height : 1 080 pixels
Display aspect ratio : 16:9
Frame rate mode : Constant
Frame rate : 23.976 (24000/1001) FPS
Color space : YUV
Chroma subsampling : 4:2:0
Bit depth : 8 bits
Scan type : Progressive
Bits/(Pixel*Frame) : 0.116
Stream size : 3.09 GiB (91%)
Writing library : x264 core 155 r2901 7d0ff22
Encoding settings : cabac=1 / ref=4 / deblock=1:-3:-3 / analyse=0x3:0x133 / me=umh / subme=9 / psy=1 / psy_rd=1.10:0.25 / mixed_ref=1 / me_range=32 / chroma_me=1 / trellis=2 / 8x8dct=1 / cqm=0 / deadzone=6,6 / fast_pskip=1 / chroma_qp_offset=-4 / threads=34 / lookahead_threads=3 / sliced_threads=0 / nr=0 / decimate=1 / interlaced=0 / bluray_compat=0 / constrained_intra=0 / bframes=6 / b_pyramid=2 / b_adapt=2 / b_bias=0 / direct=3 / weightb=1 / open_gop=0 / weightp=2 / keyint=240 / keyint_min=24 / scenecut=40 / intra_refresh=0 / rc_lookahead=40 / rc=2pass / mbtree=1 / bitrate=5760 / ratetol=1.0 / qcomp=0.60 / qpmin=0 / qpmax=69 / qpstep=4 / cplxblur=20.0 / qblur=0.5 / vbv_maxrate=20000 / vbv_bufsize=25000 / nal_hrd=none / filler=0 / ip_ratio=1.40 / aq=1:1.00
Default : Yes
Forced : No
Color range : Limited
Color primaries : BT.709
Transfer characteristics : BT.709
Matrix coefficients : BT.709
Statistics Tags Issue : mkvmerge v38.0.0 ('The Silent Type') 64-bit 2020-03-09 23:59:48 / mkvmerge v38.0.0 ('The Silent Type') 64-bit 2020-03-09 23:59:48 / UTC 2020-03-08T07:15:15Z
FromStats_BitRate : 5740234
FromStats_Duration : 01:18:49.183000000
FromStats_FrameCount : 113387
FromStats_StreamSize : 3393327681

Audio
ID : 2
Format : AC-3
Format/Info : Audio Coding 3
Format settings, Endianness : Big
Codec ID : A_AC3
Duration : 1 h 18 min
Bit rate mode : Constant
Bit rate : 448 kb/s
Channel(s) : 6 channels
Channel positions : Front: L C R, Side: L R, LFE
Sampling rate : 48.0 kHz
Frame rate : 31.250 FPS (1536 SPF)
Bit depth : 16 bits
Compression mode : Lossy
Stream size : 253 MiB (7%)
Title : Surround
Language : English
Service kind : Complete Main
Default : Yes
Forced : No
Statistics Tags Issue : mkvmerge v38.0.0 ('The Silent Type') 64-bit 2020-03-09 23:59:48 / mkvmerge v38.0.0 ('The Silent Type') 64-bit 2020-03-09 23:59:48 / UTC 2020-03-08T07:15:15Z
FromStats_BitRate : 448000
FromStats_Duration : 01:18:49.152000000
FromStats_FrameCount : 147786
FromStats_StreamSize : 264832512

Text
ID : 3
Format : UTF-8
Codec ID : S_TEXT/UTF8
Codec ID/Info : UTF-8 Plain Text
Language : English
Default : Yes
Forced : No
Statistics Tags Issue : mkvmerge v38.0.0 ('The Silent Type') 64-bit 2020-03-09 23:59:48 / mkvmerge v38.0.0 ('The Silent Type') 64-bit 2020-03-09 23:59:48 / UTC 2020-03-08T07:15:15Z
FromStats_BitRate : 46
FromStats_Duration : 01:12:33.148000000
FromStats_FrameCount : 783
FromStats_StreamSize : 25149

Menu
00:00:00.000 : :Chapter 1
00:12:22.367 : :Chapter 2
00:16:22.773 : :Chapter 3
00:21:07.892 : :Chapter 4
00:25:54.428 : :Chapter 5
00:33:20.624 : :Chapter 6
00:39:06.344 : :Chapter 7
00:45:56.587 : :Chapter 8
00:51:35.175 : :Chapter 9
00:59:03.790 : :Chapter 10
01:05:16.413 : :Chapter 11
01:13:31.741 : :Chapter 12



Метки к статье: Rake 2018

Информация к новости
  • Просмотров: 0
  • Автор: AD-TEAM
  • Дата: 26 июня 2022
  • 0
26 июня 2022

The Wall Street Journal - June 4, 2018

Категория: warez / e-book

The Wall Street Journal - June 4, 2018

The Wall Street Journal - June 4, 2018
English | 36 pages | True PDF | 21 MB

Метки к статье: Wall Street Journal June 2018

Информация к новости
  • Просмотров: 0
  • Автор: AD-TEAM
  • Дата: 26 июня 2022
  • 0
26 июня 2022

Timber Home Living - February 03, 2018

Категория: warez / e-book

Timber Home Living - February 03, 2018

Timber Home Living - February 03, 2018
English | 84 pages | True PDF | 53.2 MB

Метки к статье: Timber Home Living February 2018

Информация к новости
  • Просмотров: 0
  • Автор: AD-TEAM
  • Дата: 26 июня 2022
  • 0
26 июня 2022

The Guardian - June 26, 2018

Категория: warez / e-book

The Guardian - June 26, 2018

The Guardian - June 26, 2018
English | 52 pages | True PDF | 14 MB

Метки к статье: Guardian June 2018

Информация к новости
  • Просмотров: 0
  • Автор: AD-TEAM
  • Дата: 26 июня 2022
  • 0
26 июня 2022

The Wall Street Journal - June 2, 2018

Категория: warez / e-book

The Wall Street Journal - June 2, 2018

The Wall Street Journal - June 2, 2018
English | 56 pages | True PDF | 27 MB

Метки к статье: Wall Street Journal June 2018

Информация к новости
  • Просмотров: 0
  • Автор: AD-TEAM
  • Дата: 25 июня 2022
  • 0
25 июня 2022

The Guardian Weekly – June 29, 2018

Категория: warez / e-book

The Guardian Weekly – June 29, 2018

The Guardian Weekly – June 29, 2018
English | 48 pages | True PDF | 72.7 MB

Метки к статье: Guardian Weekly June 2018

Назад Вперед


Новости видео

Новости музыки

Новости печатных изданий

^